» » Deep Purple - Greatest Hits (PBTHAL)

 
 
 

Deep Purple - Greatest Hits (PBTHAL)

Автор: burgui от 5-08-2021, 17:46, посмотрело: 198

0
* LP *

Deep Purple - Greatest Hits (PBTHAL)


Альбом:
Greatest Hits
Имя исполнителя/ группы:
Deep Purple
Музыкальный жанр/ стиль: Rock
Дата записи/ выхода:2021
Всего треков: 22
Выпущен фирмой:
Каталог №: ----
Файл раздачи: flac 24/96
Вес архива: 2,68gb


Релиз залит на:
yand.Disс

Tracklist:
--------------------------------------------------------------------------------
DR11 -3.20 dB -15.99 dB 4:45 01-Kentucky Woman
DR11 -0.70 dB -15.45 dB 4:20 02-Hush
DR11 -0.70 dB -14.32 dB 6:03 03-Mandrake Root
DR11 -1.20 dB -15.70 dB 10:09 04-River Deep, Mountain High
DR12 -1.04 dB -18.36 dB 5:06 05-Lalena
DR12 -1.19 dB -18.32 dB 5:35 06-Bird Has Flown
DR11 -0.70 dB -13.66 dB 3:27 07-Black Night
DR10 -2.20 dB -15.15 dB 5:55 08-Speed King
DR10 -1.63 dB -14.68 dB 10:19 09-Child In Time
DR12 -0.70 dB -15.10 dB 7:57 10-Flight Of The Rat
DR13 -0.81 dB -16.46 dB 3:25 11-Fireball
DR13 -3.70 dB -19.74 dB 4:44 12-Anyone's Daughter
DR11 -2.34 dB -15.65 dB 5:22 13-The Mule
DR12 -0.70 dB -14.91 dB 4:05 14-Strange Kind Of Woman
DR12 -1.21 dB -14.80 dB 6:07 15-Highway Star
DR12 -0.70 dB -15.08 dB 5:41 16-Smoke On The Water
DR13 -0.70 dB -15.80 dB 4:32 17-Space Truckin'
DR12 -1.85 dB -16.47 dB 5:51 18-Woman From Tokyo
DR12 -1.39 dB -17.77 dB 6:04 19-Burn
DR12 -1.74 dB -16.48 dB 4:41 20-Might Just Take Your Life
DR13 -1.10 dB -17.68 dB 7:30 21-Mistreated
DR14 -1.31 dB -16.97 dB 7:06 22-Knocking At Your Back Door
Скачать:
Внимание! У вас нет прав для просмотра скрытого текста.


==============

Релиз понравился ? Скажи автору спасибо !

Категория: Vinyl-Rip 24-96, Rock, Art-rock, Hard-rock

Уважаемый посетитель, Вы зашли на сайт как незарегистрированный пользователь.
Мы рекомендуем Вам зарегистрироваться либо войти на сайт под своим именем.
Информация
Посетители, находящиеся в группе Гости, не могут оставлять комментарии к данной публикации.