» » Various – Summer Hit News 1985

 
 
 

Various – Summer Hit News 1985

Автор: mmelomann от 3-04-2021, 00:44, посмотрело: 437

1
* LP *



Various – Summer Hit News 1985



Альбом:
Various – Summer Hit News
Имя исполнителя/ группы:
Various
Музыкальный жанр/ стиль: Italo-Disco, Pop Rock, Synth-pop
Дата записи/ выхода: 1985г
Всего треков: 16
Выпущен фирмой:K-Tel
Каталог №: TG 1565
Файл раздачи: wav 16/44
Вес архива: 563mb



Tracklist:
A1 Sandra– Maria Magdalena
A2 Orchestral Manoeuvres In The Dark– So In Love
A3 Pia Zadora– Little Bit Of Heaven
A4 Mai Tai– History
A5 Lee Marrow– Shanghai
A6 Jean Knight– My Toot Toot
A7 Modern Talking– You Can Win If You Want
A8 Bad Boys Blue– You're A Woman
B1 Yello– Desire
B2 Two Of Us– Blue Night Shadow
B3 Round One (2)– Theme From Rocky
B4 Martinelli– Cenerentola (Cinderella)
B5 Michael Cretu– Samurai (Did You Ever Dream)
B6 Bogart (3)– Modern Girl
B7 Valerie Dore– It's So Easy
B8 Gary Moore & Phil Lynott– Out In The Fields

Дополнительно:
Оцифровку выполнил: mmelomann
Пост-обработка: без обработки
Код состояния винила:EX


Скачать:
Внимание! У вас нет прав для просмотра скрытого текста.

==============

Релиз понравился ? Скажи автору спасибо !

Категория: Vinyl-Rip 16-41, mp3, pop muzic, Disco, Electronic

Уважаемый посетитель, Вы зашли на сайт как незарегистрированный пользователь.
Мы рекомендуем Вам зарегистрироваться либо войти на сайт под своим именем.
<
  • 7 комментариев
  • 0 публикаций
  • ICQ:
4 апреля 2021 09:44

gabov.a.n

  • Группа: Ветеран проекта
  • Регистрация: 25.10.2017
  • Статус: Пользователь offline
 
REM COMMENT plastinka-rip.org - Vinil rip mmelomann
REM GENRE Italo-Disco, Pop Rock, Synth-pop
REM DATE 1985
PERFORMER "Various"
TITLE "Summer Hit News (K-Tel - TG 1565 Germany)"
FILE "A.wav" WAVE
TRACK 01 AUDIO
TITLE "Maria Magdalena"
PERFORMER "Sandra"
INDEX 01 00:00:00
TRACK 02 AUDIO
TITLE "So In Love"
PERFORMER "Orchestral Manoeuvres In The Dark"
INDEX 01 03:54:19
TRACK 03 AUDIO
TITLE "Little Bit Of Heaven"
PERFORMER "Pia Zadora"
INDEX 01 07:21:11
TRACK 04 AUDIO
TITLE "History"
PERFORMER "Mai Tai"
INDEX 01 11:20:53
TRACK 05 AUDIO
TITLE "Shanghai"
PERFORMER "Lee Marrow"
INDEX 01 15:06:73
TRACK 06 AUDIO
TITLE "My Toot Toot"
PERFORMER "Jean Knight"
INDEX 01 19:19:73
TRACK 07 AUDIO
TITLE "You Can Win If You Want"
PERFORMER "Modern Talking"
INDEX 01 22:36:30
TRACK 08 AUDIO
TITLE "You're A Woman"
PERFORMER "Bad Boys Blue"
INDEX 01 26:15:53
FILE "B.wav" WAVE
TRACK 09 AUDIO
TITLE "Desire"
PERFORMER "Yello"
INDEX 01 00:00:00
TRACK 10 AUDIO
TITLE "Blue Night Shadow"
PERFORMER "Two Of Us"
INDEX 01 03:41:26
TRACK 11 AUDIO
TITLE "Theme From Rocky"
PERFORMER "Round One (2)"
INDEX 01 07:14:51
TRACK 12 AUDIO
TITLE "Cenerentola (Cinderella)"
PERFORMER "Martinelli"
INDEX 01 11:07:25
TRACK 13 AUDIO
TITLE "Samurai (Did You Ever Dream)"
PERFORMER "Michael Cretu"
INDEX 01 15:03:52
TRACK 14 AUDIO
TITLE "Modern Girl"
PERFORMER "Bogart (3)"
INDEX 01 18:46:27
TRACK 15 AUDIO
TITLE "It's So Easy"
PERFORMER "Valerie Dore"
INDEX 01 22:28:41
TRACK 16 AUDIO
TITLE "Out In The Fields"
PERFORMER "Gary Moore & Phil Lynott"
INDEX 01 25:44:73

Информация
Посетители, находящиеся в группе Гости, не могут оставлять комментарии к данной публикации.