» » VA - Фотографии любимых - Песни на стихи В. Харитонова

 
 
 

VA - Фотографии любимых - Песни на стихи В. Харитонова

Автор: burgui от 7-08-2021, 08:55, посмотрело: 203

1
* LP *

VA - Фотографии любимых - Песни на стихи В. Харитонова


Альбом:
Фотографии любимых
Имя исполнителя/ группы:
VA
Музыкальный жанр/ стиль: POP
Дата записи/ выхода: 1980
Всего треков: 8
Выпущен фирмой:МЕЛОДИЯ
Каталог №: ----
Файл раздачи: WavPack 32/192
Вес архива: 2,05gb


Релиз залит на:
yand.Disс

Tracklist:
Сторона 1
A1. Здравствуй (Д.Тухманов) Яак Йоала
A2. Стучат колеса (С.Намин) группа Стаса Намина"
A3. Что-то есть в тебе такое (Д.Тухманов) группа Стаса Намина
A4. Летний вечер (С.Намин) группа Стаса Намина
Сторона 2
B5. Фотографии любимых (Д.Тухманов) Яак Йоала
B6. Если тебя нет (С.Намин) группа Стаса Намина
B7. Ты подожди ответа (С.Намин) группа Стаса Намина
B8. Еще не поздно (Д.Тухманов) Яак Йоала


Дополнительно:
Оцифровку выполнил: 9BUJHMH
Скачать:
Внимание! У вас нет прав для просмотра скрытого текста.


==============

Релиз понравился ? Скажи автору спасибо !

Категория: Vinyl-Rip 24-192, pop muzic

Уважаемый посетитель, Вы зашли на сайт как незарегистрированный пользователь.
Мы рекомендуем Вам зарегистрироваться либо войти на сайт под своим именем.
<
  • 1 комментарий
  • 0 публикаций
  • ICQ:
8 августа 2021 17:30

DimonXXX

  • Группа: Меломан
  • Регистрация: 8.08.2021
  • Статус: Пользователь offline
 
Рабочий cue

PERFORMER "Фотографии любимых-Песни на стихи В.Харитонова"
TITLE "Фотографии любимых"
FILE "Фотографии любимых-Песни на стихи В.Харитонова LP 1980.wv" WAVE
TRACK 01 AUDIO
TITLE "Здравствуй (Д.Тухманов)"
PERFORMER "Яак Йоала"
INDEX 01 00:00:00
TRACK 02 AUDIO
TITLE "Стучат колеса (С.Намин)"
PERFORMER "гр. Стаса Намина"
INDEX 01 05:17:00
TRACK 03 AUDIO
TITLE "Что-то есть в тебе такое (Д.Тухманов)"
PERFORMER "гр. Стаса Намина"
INDEX 01 08:23:00
TRACK 04 AUDIO
TITLE "Летний вечер (С.Намин)"
PERFORMER "гр. Стаса Намина"
INDEX 01 12:34:00
TRACK 05 AUDIO
TITLE "Фотографии любимых (Д.Тухманов)"
PERFORMER "Яак Йоала"
INDEX 01 18:47:00
TRACK 06 AUDIO
TITLE "Если тебя нет (С.Намин)"
PERFORMER "гр. Стаса Намина"
INDEX 01 22:42:00
TRACK 07 AUDIO
TITLE "Ты подожди ответа (С.Намин)"
PERFORMER "гр. Стаса Намина"
INDEX 01 28:05:00
TRACK 08 AUDIO
TITLE "Еще не поздно (Д.Тухманов)"
PERFORMER "Яак Йоала"
INDEX 01 32:00:00

Информация
Посетители, находящиеся в группе Гости, не могут оставлять комментарии к данной публикации.