» » Pink Floyd - Greatest Hits (PBTHAL)

 
 
 

Pink Floyd - Greatest Hits (PBTHAL)

Автор: burgui от 5-08-2021, 18:34, посмотрело: 226

0
* LP *

Pink Floyd - Greatest Hits (PBTHAL)


Альбом:
Greatest Hits
Имя исполнителя/ группы:
Pink Floyd
Музыкальный жанр/ стиль: Rock
Дата записи/ выхода:2021
Всего треков: 40
Выпущен фирмой:
Каталог №: ----
Файл раздачи: flac 24/96
Вес архива: 4,98gb


Релиз залит на:
yand.Disс

Tracklist:
DR13 -0.70 dB -20.39 dB 5:17 01-Wish You Were Here
DR17 -0.70 dB -19.77 dB 4:25 02-Run Like Hell
DR11 -3.51 dB -19.49 dB 7:40 03-Us And Them
DR13 -0.70 dB -16.84 dB 6:24 04-Comfortably Numb
DR12 -2.61 dB -18.66 dB 5:51 05-One Of These Days
DR16 -0.70 dB -20.54 dB 4:01 06-Another Brick In The Wall (Part 2)
DR12 -1.53 dB -16.76 dB 7:05 07-Time
DR13 -2.56 dB -19.41 dB 13:38 08-Shine On You Crazy Diamond (Parts 1-5)
DR15 -1.09 dB -19.13 dB 3:29 09-Young Lust
DR12 -0.70 dB -16.88 dB 10:24 10-Sheep
DR12 -1.66 dB -17.08 dB 4:53 11-Learning To Fly
DR13 -0.90 dB -19.80 dB 8:46 12-Careful With That Axe, Eugene (Live)
DR12 -2.87 dB -18.39 dB 6:34 13-Money
DR15 -1.19 dB -19.79 dB 6:05 14-Fearless
DR14 -1.19 dB -19.79 dB 4:42 15-Hey You
DR13 -1.24 dB -17.87 dB 5:26 16-Have A Cigar
DR11 -0.70 dB -17.96 dB 4:43 17-The Great Gig In The Sky
DR14 -0.70 dB -18.68 dB 17:08 18-Dogs
DR12 -8.55 dB -23.26 dB 2:51 19-Goodbye Blue Sky
DR14 -0.70 dB -19.64 dB 23:21 20-Echoes
DR15 -3.16 dB -21.41 dB 4:16 21-Free Four
DR12 -0.70 dB -16.60 dB 3:21 22-In The Flesh?
DR12 -2.84 dB -20.07 dB 3:50 23-Brain Damage
DR11 -0.70 dB -16.03 dB 2:05 24-Eclipse
DR14 -3.81 dB -23.84 dB 2:47 25-Is There Anybody Out There?
DR12 -6.46 dB -24.54 dB 1:13 26-Speak To Me
DR12 -2.63 dB -17.43 dB 2:45 27-Breathe
DR13 -1.37 dB -17.63 dB 11:23 28-Pigs (Three Different Ones)
DR12 -1.00 dB -17.70 dB 7:07 29-High Hopes
DR12 -1.45 dB -17.91 dB 7:28 30-Welcome To The Machine
DR16 -1.57 dB -22.29 dB 5:31 31-Mother
DR12 -2.95 dB -17.03 dB 3:26 32-Any Colour You Like
DR13 -1.65 dB -20.97 dB 12:44 33-A Saucerful Of Secrets (Live)
DR14 -4.99 dB -22.39 dB 5:08 34-Wot's... Uh The Deal
DR12 -0.70 dB -16.19 dB 5:03 35-Not Now John
DR13 -5.67 dB -23.26 dB 3:40 36-Nobody Home
DR11 -1.24 dB -16.01 dB 6:13 37-Take It Back
DR14 -1.09 dB -21.49 dB 5:02 38-The Gunner's Dream
DR15 -0.70 dB -21.29 dB 3:38 39-One Of My Turns
DR13 -1.69 dB -19.73 dB 3:35 40-On The Run
Скачать:
Внимание! У вас нет прав для просмотра скрытого текста.


==============

Релиз понравился ? Скажи автору спасибо !

Категория: Vinyl-Rip 24-96, Rock, Art-rock, Hard-rock

Уважаемый посетитель, Вы зашли на сайт как незарегистрированный пользователь.
Мы рекомендуем Вам зарегистрироваться либо войти на сайт под своим именем.
Информация
Посетители, находящиеся в группе Гости, не могут оставлять комментарии к данной публикации.