» » The Police - Greatest Hits (PBTHAL)

 
 
 

The Police - Greatest Hits (PBTHAL)

Автор: burgui от 6-08-2021, 19:15, посмотрело: 83

0
* LP *

The Police - Greatest Hits (PBTHAL)


Альбом:
Greatest Hits
Имя исполнителя/ группы:
The Police
Музыкальный жанр/ стиль: Rock
Дата записи/ выхода: 2021
Всего треков: 20
Выпущен фирмой: ----
Каталог №: ----
Файл раздачи: flac 24/96
Вес архива: 1,63gb


Релиз залит на:
mail.ru

Tracklist:
DR13 -2.07 dB -17.89 dB 2:52 01-Next To You
DR13 -0.91 dB -19.85 dB 4:48 02-So Lonely
DR14 -1.31 dB -18.80 dB 3:12 03-Roxanne
DR14 -1.48 dB -19.37 dB 3:00 04-Can't Stand Losing You
DR15 -0.91 dB -18.11 dB 4:50 05-Message In A Bottle
DR16 -0.93 dB -21.80 dB 4:59 06-Walking On The Moon
DR15 -2.79 dB -20.56 dB 4:26 07-The Bed's Too Big Without You
DR17 -0.70 dB -21.11 dB 4:03 08-Don't Stand So Close To Me
DR16 -1.37 dB -20.39 dB 3:21 09-Driven To Tears
DR15 -0.86 dB -18.79 dB 4:10 10-De Do Do Do, De Da Da Da
DR16 -2.87 dB -22.24 dB 4:18 11-Tea In The Sahara
DR14 -1.31 dB -19.24 dB 3:35 12-Secret Journey
DR15 -1.44 dB -18.28 dB 2:59 13-Spirits In The Material World
DR12 -0.88 dB -16.35 dB 4:22 14-Every Little Thing She Does Is Magic
DR13 -0.70 dB -17.37 dB 3:45 15-Invisible Sun
DR13 -1.11 dB -15.11 dB 3:11 16-Rehumanize Yourself
DR14 -2.20 dB -18.76 dB 5:02 17-Synchronicity II
DR15 -0.90 dB -17.86 dB 4:15 18-Every Breath You Take
DR15 -0.70 dB -18.83 dB 4:59 19-King Of Pain
DR14 -2.12 dB -19.64 dB 5:14 20-Wrapped Around Your Finger
Скачать:
Внимание! У вас нет прав для просмотра скрытого текста.


==============

Релиз понравился ? Скажи автору спасибо !

Категория: Vinyl-Rip 24-96, Rock, Art-rock, Hard-rock

Уважаемый посетитель, Вы зашли на сайт как незарегистрированный пользователь.
Мы рекомендуем Вам зарегистрироваться либо войти на сайт под своим именем.
Информация
Посетители, находящиеся в группе Гости, не могут оставлять комментарии к данной публикации.