» » Pete Townshend - All The Best Cowboys (1982) (PBTHAL)

 
 
 

Pete Townshend - All The Best Cowboys (1982) (PBTHAL)

Автор: burgui от 20-08-2021, 16:27, посмотрело: 66

0
* LP *

Pete Townshend - All The Best Cowboys (1982) (PBTHAL)


Альбом:
All The Best Cowboys
Имя исполнителя/ группы:
Pete Townshend
Музыкальный жанр/ стиль: Rock
Дата записи/ выхода: 1982/2010
Всего треков: 11
Выпущен фирмой: ----
Каталог №: ----
Файл раздачи: flac 24/96
Вес архива: 946mb


Релиз залит на:
mail.ru

foobar2000 1.4.3 / Dynamic Range Meter 1.1.1
log date: 2021-06-05 21:53:13

--------------------------------------------------------------------------------
Analyzed: Pete Townshend / All The Best Cowboys Have Chinese Eyes
--------------------------------------------------------------------------------

DR Peak RMS Duration Track
--------------------------------------------------------------------------------
DR10 -1.42 dB -13.30 dB 3:54 01-Stop Hurting People
DR10 -1.56 dB -14.22 dB 5:55 02-The Sea Refuses No River
DR10 -3.11 dB -17.78 dB 1:32 03-Prelude
DR10 -1.16 dB -13.70 dB 3:24 04-Face Dances Part Two
DR9 -1.30 dB -14.76 dB 3:42 05-Exquisitely Bored
DR10 -1.65 dB -13.06 dB 3:20 06-Communication
DR10 -1.40 dB -13.76 dB 3:41 07-Stardom In Action
DR9 -1.64 dB -12.55 dB 3:43 08-Uniforms
DR10 -1.22 dB -13.79 dB 2:28 09-North Country Girl
DR10 -1.52 dB -14.49 dB 4:52 10-Somebody Saved Me
DR10 -1.23 dB -13.56 dB 4:52 11-Slit Skirts
Скачать:
Внимание! У вас нет прав для просмотра скрытого текста.


==============

Релиз понравился ? Скажи автору спасибо !

Категория: Vinyl-Rip 24-96, Rock, Art-rock, Hard-rock

Уважаемый посетитель, Вы зашли на сайт как незарегистрированный пользователь.
Мы рекомендуем Вам зарегистрироваться либо войти на сайт под своим именем.
Информация
Посетители, находящиеся в группе Гости, не могут оставлять комментарии к данной публикации.