» » Creedence Clearwater Revival - Greatest Hits (PBTHAL)

 
 
 

Creedence Clearwater Revival - Greatest Hits (PBTHAL)

Автор: burgui от 20-08-2021, 16:45, посмотрело: 1305

0
* LP *

Creedence Clearwater Revival - Greatest Hits (PBTHAL)


Альбом:
Greatest Hits
Имя исполнителя/ группы:
Creedence Clearwater Revival
Музыкальный жанр/ стиль: Rock
Дата записи/ выхода: 2021
Всего треков: 20
Выпущен фирмой: ----
Каталог №: ----
Файл раздачи: flac 24/96
Вес архива: 1,52gb


Релиз залит на:
mail.ru

Tracklist:
foobar2000 1.6.6 / Dynamic Range Meter 1.1.1
log date: 2021-08-19 13:52:24

--------------------------------------------------------------------------------
Analyzed: Creedence Clearwater Revival / Chronicle: The 20 Greatest Hits
--------------------------------------------------------------------------------

DR Peak RMS Duration Track
--------------------------------------------------------------------------------
DR13 -2.37 dB -17.89 dB 8:35 01-Suzie Q
DR12 -1.21 dB -16.44 dB 4:32 02-I Put A Spell On You
DR14 -1.77 dB -17.08 dB 3:08 03-Proud Mary
DR13 -1.11 dB -15.21 dB 2:23 04-Bad Moon Rising
DR13 -2.22 dB -16.36 dB 3:13 05-Lodi
DR13 -0.95 dB -15.74 dB 2:37 06-Green River
DR13 -1.99 dB -16.84 dB 2:44 07-Commotion
DR14 -1.71 dB -17.30 dB 2:46 08-Down On The Corner
DR12 -0.99 dB -14.75 dB 2:22 09-Fortunate Son
DR13 -2.40 dB -17.51 dB 2:08 10-Travelin' Band
DR13 -4.09 dB -19.76 dB 2:30 11-Who'll Stop The Rain
DR12 -4.93 dB -18.90 dB 2:44 12-Up Around The Bend
DR12 -3.86 dB -18.75 dB 3:09 13-Run Through The Jungle
DR14 -2.61 dB -18.23 dB 2:33 14-Lookin' Out My Back Door
DR14 -4.08 dB -20.63 dB 3:37 15-Long As I Can See The Light
DR14 -1.63 dB -18.10 dB 11:07 16-I Heard It Through The Grapevine
DR13 -2.08 dB -17.24 dB 2:40 17-Have You Ever Seen The Rain?
DR13 -1.45 dB -16.98 dB 2:46 18-Hey Tonight
DR14 -1.70 dB -17.92 dB 2:59 19-Sweet Hitch-Hiker
DR14 -0.70 dB -19.25 dB 4:04 20-Someday Never Comes
Скачать:
Внимание! У вас нет прав для просмотра скрытого текста.


==============

Релиз понравился ? Скажи автору спасибо !

Категория: Vinyl-Rip 24-96, Rock, Art-rock, Hard-rock

Уважаемый посетитель, Вы зашли на сайт как незарегистрированный пользователь.
Мы рекомендуем Вам зарегистрироваться либо войти на сайт под своим именем.
Информация
Посетители, находящиеся в группе Гости, не могут оставлять комментарии к данной публикации.