» » Frank Sinatra - The Very Best Of

 
 
 

Frank Sinatra - The Very Best Of

Автор: burgui от 10-09-2021, 16:56, посмотрело: 110

0
* LP *

Frank Sinatra - The Very Best Of


Альбом:
The Very Best Of
Имя исполнителя/ группы:
Frank Sinatra
Музыкальный жанр/ стиль: Vocal Jazz
Дата записи/ выхода: 2016
Всего треков: 50
Выпущен фирмой: ----
Каталог №: ----
Файл раздачи: flac 24/96
Вес архива: 1,93gb


Релиз залит на:
mail.ru

Tracklist:
Frank Sinatra / The Very Best Of Frank Sinatra
--------------------------------------------------------------------------------

DR Peak RMS Duration Track
--------------------------------------------------------------------------------
DR11 -7.41 dB -21.05 dB 3:43 01-I've Got You Under My Skin
DR11 -2.23 dB -17.89 dB 3:42 02-Everybody Loves Somebody
DR10 -4.67 dB -17.13 dB 2:01 03-When You're Smiling
DR10 -6.07 dB -18.62 dB 3:06 04-Cheek To Cheek
DR7 -4.47 dB -16.01 dB 3:21 05-Over The Rainbow
DR11 -2.48 dB -16.86 dB 2:43 06-April In Paris
DR11 -7.16 dB -19.69 dB 2:27 07-Dancing In The Dark
DR13 -4.59 dB -20.31 dB 3:06 08-Makin' Whoopee
DR13 -2.37 dB -19.43 dB 3:23 09-Stormy Weather
DR10 -5.41 dB -20.01 dB 4:20 10-These Foolish Things
DR12 -2.90 dB -16.90 dB 2:54 11-Blue Moon
DR9 -2.40 dB -15.98 dB 3:05 12-All The Things You Are
DR11 -0.72 dB -15.27 dB 3:17 13-Body And Soul
DR13 -4.72 dB -21.86 dB 4:53 14-I'm A Fool To Want You
DR12 -7.15 dB -20.80 dB 3:56 15-Old Devil Moon
DR12 -6.81 dB -20.44 dB 2:32 16-Come Dance With Me
DR12 -2.84 dB -16.74 dB 3:00 17-September In The Rain
DR12 -3.20 dB -18.65 dB 3:22 18-Nature Boy
DR11 -5.88 dB -19.38 dB 2:41 19-As Time Goes By
DR12 -1.07 dB -19.03 dB 5:13 20-Gone With The Wind
DR11 -6.23 dB -19.11 dB 2:39 21-Love Is Here To Stay
DR10 -6.09 dB -19.98 dB 2:53 22-All The Way
DR12 -4.18 dB -19.82 dB 2:43 23-Pennies From Heaven
DR9 -6.55 dB -19.63 dB 2:49 24-I'll Remember April
DR10 -3.81 dB -16.78 dB 2:25 25-Silent Night
DR12 -7.18 dB -21.63 dB 2:12 26-The Last Dance
DR11 -5.55 dB -19.51 dB 2:43 27-Anything Goes
DR11 -2.01 dB -16.82 dB 3:15 28-Stella By Starlight
DR10 -6.79 dB -20.76 dB 3:51 29-To Love And Be Loved
DR11 -5.74 dB -20.74 dB 3:14 30-A Million Dreams Ago
DR9 -4.92 dB -16.62 dB 2:55 31-You'll Always Be The One I Love
DR11 -6.90 dB -19.96 dB 2:25 32-Just In Time
DR10 -2.53 dB -16.90 dB 3:15 33-Laura
DR13 -2.73 dB -21.86 dB 5:47 34-Goodbye
DR12 -2.99 dB -19.97 dB 4:50 35-Willow Weep For Me
DR16 -0.98 dB -22.53 dB 4:24 36-One For My Baby
DR13 -2.87 dB -20.69 dB 3:44 37-Just Friends
DR9 -4.03 dB -16.77 dB 2:58 38-Talk To Me
DR12 -5.49 dB -20.65 dB 3:59 39-September Song
DR11 -6.66 dB -20.02 dB 3:16 40-Our Town
DR10 -7.67 dB -20.23 dB 2:57 41-You My Love
DR11 -6.58 dB -19.22 dB 2:43 42-High Hopes
DR8 -8.20 dB -19.23 dB 2:57 43-When I Stop Loving You
DR11 -2.54 dB -15.96 dB 2:05 44-My Blue Heaven
DR13 -1.36 dB -18.37 dB 3:14 45-But Beautiful
DR12 -2.09 dB -18.92 dB 3:50 46-I'll Never Smile Again
DR13 -2.23 dB -18.86 dB 3:19 47-I Don't Stand A Ghost Of A Change With You
DR10 -3.23 dB -16.54 dB 3:55 48-If You Are But A Dream
DR10 -4.26 dB -16.82 dB 2:52 49-The Same Old Song And Dance
DR11 -3.55 dB -17.86 dB 3:12 50-Something Wonderful Happens In Summer

Скачать:
Внимание! У вас нет прав для просмотра скрытого текста.


==============

Релиз понравился ? Скажи автору спасибо !

Категория: Vinyl-Rip 24-96, Jazz, Blues, Soul

Уважаемый посетитель, Вы зашли на сайт как незарегистрированный пользователь.
Мы рекомендуем Вам зарегистрироваться либо войти на сайт под своим именем.
Информация
Посетители, находящиеся в группе Гости, не могут оставлять комментарии к данной публикации.