» » Nazareth - Close Enough For Rock 'N' Roll - 1976/2021

 
 
 

Nazareth - Close Enough For Rock 'N' Roll - 1976/2021

Автор: burgui от 21-09-2021, 19:38, посмотрело: 122

0
* [TR24][OF] *

Nazareth - Close Enough For Rock 'N' Roll - 1976/2021


Альбом:
Close Enough For Rock 'N' Roll
Имя исполнителя/ группы:
Nazareth
Музыкальный жанр/ стиль: Hard Rock
Дата записи/ выхода: 1976/2021
Всего треков: 9
Выпущен фирмой: A&M Records
Каталог №: ----
Файл раздачи: flac 24/96
Вес архива: 812mb


Релиз залит на:
mail.ru

Tracklist:
01. Telegram (7:47)
02. Vicki (2:24)
03. Homesick Again (4:31)
04. Vancouver Shakedown (4:04)
05. Born Under The Wrong Sign (3:56)
06. Loretta (3:18)
07. Carry Out Feelings (3:18)
08. Lift The Lid (3:51)
09. You're The Violin (4:43)


Дополнительно:
Лог проверки качества

foobar2000 1.6.5 / Dynamic Range Meter 1.1.1

--------------------------------------------------------------------------------
Analyzed: Nazareth / Close Enough For Rock 'N' Roll
--------------------------------------------------------------------------------

DR Peak RMS Duration Track
--------------------------------------------------------------------------------
DR12 -0.34 dB -14.96 dB 7:47 01-Telegram
DR16 -3.96 dB -25.01 dB 2:24 02-Vicki
DR13 -0.20 dB -15.30 dB 4:31 03-Homesick Again
DR13 -0.24 dB -15.10 dB 4:04 04-Vancouver Shakedown
DR13 -0.33 dB -16.02 dB 3:56 05-Born Under The Wrong Sign
DR12 -1.90 dB -15.08 dB 3:18 06-Loretta
DR12 -0.46 dB -14.81 dB 3:18 07-Carry Out Feelings
DR12 -0.90 dB -14.41 dB 3:51 08-Lift The Lid
DR12 -0.38 dB -14.41 dB 4:43 09-You're The Violin
--------------------------------------------------------------------------------

Number of tracks: 9
Official DR value: DR13

Samplerate: 96000 Hz
Channels: 2
Bits per sample: 24
Bitrate: 2881 kbps
Codec: FLAC
================================================================================
Скачать:
Внимание! У вас нет прав для просмотра скрытого текста.


==============

Релиз понравился ? Скажи автору спасибо !

Категория: Vinyl-Rip 24-96, Rock, Art-rock, Hard-rock

Уважаемый посетитель, Вы зашли на сайт как незарегистрированный пользователь.
Мы рекомендуем Вам зарегистрироваться либо войти на сайт под своим именем.
Информация
Посетители, находящиеся в группе Гости, не могут оставлять комментарии к данной публикации.